Direct Download Free Movies Mp3's Software Programs Stock Images » TUTORIALS » Video2Brain - Illustrator De 0 a 100: Dibujo vectorial r?pido y potente (2014) 

Video2Brain - Illustrator De 0 a 100: Dibujo vectorial r?pido y potente (2014)

http://i65.fastpic.ru/big/2014/1006/c2/d141d870db542665dc7aeb62a0f5a1c2.jpg

Video2Brain - Illustrator De 0 a 100: Dibujo vectorial rápido y potente
(.mp4) in an interactive shell | Spanish | 1280 x 720 | AVC ~443 kbps | 25 fps
AAC | 64 Kbps | 44.1 KHz | 1 channel | 3h 45mn | 612 MB
Genre: Video tutorial / Illustrator

"El curso definitivo para engancharte a Illustrator CC y dejar de verlo como aquel programa que nunca pudiste aprender. Un curso pensado bajo un sistema de aprendizaje rápido y divertido que te ayudará a crear por ti mismo cualquier tipo de elemento que seas capaz de imaginar en la aplicación vectorial más utilizada del mundo."

Video2Brain - Illustrator De 0 a 100: Dibujo vectorial r?pido y potente (2014)


HI-SPEED DOWNLOAD
Free 300 GB with Full DSL-Broadband Speed!



Formadores: Aurelio Burgueño
Fecha de publicación: 12/08/2014


http://i65.fastpic.ru/big/2014/1006/c7/3d0c8c294f96841ff5619bfcf0c381c7.jpg

Presentación del curso Illustrator. De 0 a 100
Aurelio Burgueño te presenta su curso Illustrator. De 0 a 100. Dibujo vectorial rápido y potente.

Introducción al curso Illustrator de 0 a 100
Presentación y objetivos del curso Illustrator de 0 a 100 01:13
Archivos base de Illustrator de 0 a 100 01:01
Iniciando el movimiento en Illustrator
Illustrator como herramienta vectorial 06:08
Herramientas de selección de objetos 05:24
Aplicación de colores de relleno y contorno 04:49
La herramienta de Trazo de Illustrator 03:19
Grupos y modo de aislamiento 03:33
Creando las primeras formas básicas 04:16
Comenzando a rodar con Illustrator
Creación de una primera forma vectorial 01:39
Duplicar y ajustar objetos en Illustrator 03:48
Definiendo un punto de fuga 02:03
Creando volumen en Illustrator 02:60
Falseando la profundidad 02:24
Dando color en Illustrator 03:28
Dando color profesional 03:02
Creación de una sombra básica 02:48
Volúmenes transparentes en Illustrator 02:23
Añadiendo luces 04:09
El movimiento se demuestra andando
Transformaciones en Illustrator 03:44
Transformaciones para diseñadores 04:40
Transformaciones para diseñadores expertos 03:48
Restaurar cuadro delimitador en Illustrator 02:01
Estabilizando a velocidad de crucero
Creación de un modelo básico en Illustrator 02:16
Duplicación automatizada del modelo 02:13
Finalización de la súper estructura 01:29
Combinando más y más funciones
Creación del modelo básico en Illustrator 02:17
Creación de la numeración adecuada 07:29
Dando sensación de volumen 06:44
Dando sensación de profundidad 03:59
Dando sensación de transparencia 05:55
Piloto automático conectado
Creando una píldora en Illustrator 04:11
Simulando el brillo plástico 04:32
Proyectando sombras 06:56
Generando el volumen final 05:04
La próxima generación
Creando 3D en Illustrator 04:02
Diferentes efectos 01:23
Los dados de la suerte 05:26
La mesa de juego 08:21
Los trucos del experto en Illustrator 02:33
Creando herramientas para el diseñador 01:25
Combinando herramientas para alcanzar el mejor resultado en Illustrator 06:21
Alcanzando metas imposibles
Degradados vs Mallas de degradado 05:08
Reproduciendo el hielo en Illustrator 06:36
El agua del deshielo 03:26
El hielo siempre es transparente 05:04
Los reflejos también son transparentes 02:24
El final del viaje cada vez más cerca
Creación de aspirinas en Illustrator 02:03
La perspectiva que nunca se pierde 01:36
La profundidad del grabado 03:07
Herramientas de trabajo en Illustrator 05:06
Herramientas de más trabajo 01:36
Herramientas de mucho más trabajo 06:26
Herramientas avanzadas 02:50
Más herramientas avanzadas 03:17
La última frontera
Trazados compuestos y Máscaras de recorte 03:25
Botones adaptables en Illustrator 12:19
Haciendo uso de herramientas profesionales 01:29
Haciendo uso de más herramientas profesionales 02:06
Despedida del curso Illustrator de 0 a 100

General
Complete name : ES_701_01_04.mp4
Format : MPEG-4
Format profile : Base Media / Version 2
Codec ID : mp42
File size : 12.2 MiB
Duration : 3mn 19s
Overall bit rate mode : Variable
Overall bit rate : 514 Kbps
Movie name : 02.04 La herramienta de Trazo de Illustrator
Album : Illustrator. De 0 a 100
Album/Performer : Aurelio Burgueno
Track name/Position : 6
Performer : Aurelio Burgueno
Genre : Video-Training
Recorded date : 2014
Encoded date : UTC 2014-08-11 17:01:23
Tagged date : UTC 2014-08-12 13:47:03
Writing library : Apple QuickTime
Copyright : © 2014, video2brain GmbH
Cover : Yes
desc : Uso de la herramienta de Trazo para dar grosor a las lineas, y opciones para crear puntas de flecha, asi como lineas discontinuas.
ldes : Uso de la herramienta de Trazo para dar grosor a las lineas, y opciones para crear puntas de flecha, asi como lineas discontinuas. /
catg : Video-Training
stik : 10
tvsh : Illustrator. De 0 a 100
Video #1
ID : 1
Format : AVC
Format/Info : Advanced Video Codec
Format profile : [email protected]
Format settings, CABAC : No
Format settings, ReFrames : 3 frames
Format settings, GOP : M=1, N=75
Codec ID : avc1
Codec ID/Info : Advanced Video Coding
Duration : 3mn 19s
Bit rate : 443 Kbps
Width : 1 280 pixels
Height : 720 pixels
Display aspect ratio : 16:9
Frame rate mode : Constant
Frame rate : 25.000 fps
Standard : Component
Color space : YUV
Chroma subsampling : 4:2:0
Bit depth : 8 bits
Scan type : Progressive
Bits/(Pixel*Frame) : 0.019
Stream size : 10.5 MiB (86%)
Language : English
Encoded date : UTC 2014-08-11 17:01:23
Tagged date : UTC 2014-08-11 17:01:23
Audio #2
ID : 2
Format : AAC
Format/Info : Advanced Audio Codec
Format profile : LC
Codec ID : 40
Duration : 3mn 19s
Source duration : 3mn 19s
Bit rate mode : Variable
Bit rate : 64.0 Kbps
Maximum bit rate : 67.6 Kbps
Channel(s) : 1 channel
Channel positions : Front: C
Sampling rate : 44.1 KHz
Compression mode : Lossy
Stream size : 1.52 MiB (12%)
Source stream size : 1.52 MiB (12%)
Language : English
Encoded date : UTC 2014-08-11 17:01:23
Tagged date : UTC 2014-08-11 17:01:23

Screenshots

http://i66.fastpic.ru/big/2014/1006/77/bca2d8df98af22ccde83c7ace4b0fb77.jpg

http://i67.fastpic.ru/big/2014/1006/b4/c856cc07217eef14a077b049fa51aeb4.jpg

http://i66.fastpic.ru/big/2014/1006/66/e0b4068e0d64e9a91801015077bede66.jpg

http://i67.fastpic.ru/big/2014/1006/0c/c8fad6372fedd1b1ce22b26429316a0c.jpg


Download Links:




Video2Brain - Illustrator De 0 a 100: Dibujo vectorial r?pido y potente (2014)

14 Days Free Access to USENET
Free 300 GB with full DSL-Broadband Speed!




 Register | Forgot your password?




  • GFXTRA.COM
  • New Fonts
  • New Envato
  • Full Downloads
  • Torrent Search
  • Wow E-books
  • Video Training
  • 10k+ daily uniques and pr3 or above PM me